高清帝国论坛

 找回密码
 立即注册

QQ登录

只需一步,快速开始

搜索
查看: 151|回复: 6

[动作] 贼巢/极盗战 2018.UNRATED.1080p.BluRay.x264.DTS-HD.MA.5.1-FGT 12.9GB

[复制链接]
发表于 2018-4-15 17:40:47 | 显示全部楼层 |阅读模式
-->

◎译  名 贼巢/极盗战(台)/贼斗(港)
◎片  名 Den of Thieves
◎年  代 2018
◎产  地 美国
◎类  别 动作/犯罪/惊悚
◎语  言 英语
◎上映日期 2018-01-19(美国)
◎IMDb评分  7.1/10 from 13,911 users
◎IMDb链接  http://www.imdb.com/title/tt1259528/
◎豆瓣评分 6.7/10 from 547 users
◎豆瓣链接 https://movie.douban.com/subject/3143727/
◎BT之家整理 http://www.gaoqingdiguo.com
◎片  长 140分钟
◎导  演 克里斯蒂安·古德加斯特 Christian Gudegast
◎主  演 杰拉德·巴特勒 Gerard Butler
      巴勃罗·施瑞博尔 Pablo Schreiber
      小奥谢拉·杰克逊 O'Shea Jackson Jr.
      50分 50 Cent
      梅多·威廉姆斯 Meadow Williams
      莫里斯·孔特 Maurice Compte
      布莱恩·范·霍尔特 Brian Van Holt
      伊万·琼斯 Evan Jones
      莫·麦克雷 Mo McRae
      凯维·莱曼-默塞尤 Kaiwi Lyman-Mersereau
      道恩·奥利弗瑞 Dawn Olivieri
      艾瑞克·布里登 Eric Braeden
      约旦·布里奇斯 Jordan Bridges
      刘易斯·谭 Lewis Tan
      库珀·安德鲁斯 Cooper Andrews
◎简  介
  从未被劫的银行,三千万无记认钞票,引爆连环盗计。一群以梅雷亚(巴勃罗·施瑞博尔 饰)为首的高智罪犯,手法高超、火力强横、而且沉迷打劫;纵使犯案累累,却甚少破绽,令警方束手无策。一次押款车劫案后,他们的党羽唐尼(奥谢拉·杰克逊 饰)被辣手神探尼克(杰拉德·巴特勒 饰)识破,更从他身上知道匪帮下一个目标,是攻破从未遇劫的洛杉矶联邦储备银行,从中盗取三千万即将销毁的旧钞!于是尼克布下天罗地网,想趁机把他们一网成擒。然而,魔高一丈;梅雷亚以声东击西之法,引开警方注意。尼克错失擒获他们的良机,唯有尾随追击,双方展开连场枪战。虽然最终截获贼匪,但赃款竟全数不翼而飞!局中有局,究竟谁是取得巨款的幕后赢家?
Video
ID                                       : 1
Format                                   : AVC
Format/Info                              : Advanced Video Codec
Format profile                           : High@L4.1
Format settings                          : CABAC / 5 Ref Frames
Format settings, CABAC                   : Yes
Format settings, ReFrames                : 5 frames
Codec ID                                 : V_MPEG4/ISO/AVC
Duration                                 : 2 h 28 min
Bit rate                                 : 9 001 kb/s
Width                                    : 1 920 pixels
Height                                   : 800 pixels
Display aspect ratio                     : 2.40:1
Frame rate mode                          : Constant
Frame rate                               : 23.976 (24000/1001) FPS
Color space                              : YUV
Chroma subsampling                       : 4:2:0
Bit depth                                : 8 bits
Scan type                                : Progressive
Bits/(Pixel*Frame)                       : 0.244
Stream size                              : 9.35 GiB (72%)
Title                                    : Den.Of.Thieves.2018.UNRATED.1080p.BluRay.x264.DTS-HD.MA.5.1-FGT
Writing library                          : x264 core 155 r2901 7d0ff22
Encoding settings                        : cabac=1 / ref=5 / deblock=1:0:0 / analyse=0x3:0x133 / me=umh / subme=7 / psy=1 / psy_rd=1.00:0.00 / mixed_ref=1 / me_range=16 / chroma_me=1 / trellis=1 / 8x8dct=1 / cqm=0 / deadzone=21,11 / fast_pskip=0 / chroma_qp_offset=-2 / threads=24 / lookahead_threads=4 / sliced_threads=0 / nr=0 / decimate=1 / interlaced=0 / bluray_compat=0 / constrained_intra=0 / bframes=3 / b_pyramid=2 / b_adapt=1 / b_bias=0 / direct=1 / weightb=1 / open_gop=0 / weightp=2 / keyint=250 / keyint_min=23 / scenecut=40 / intra_refresh=0 / rc_lookahead=40 / rc=2pass / mbtree=1 / bitrate=9001 / ratetol=1.0 / qcomp=0.60 / qpmin=0 / qpmax=69 / qpstep=4 / cplxblur=20.0 / qblur=0.5 / ip_ratio=1.40 / aq=1:1.00
Language                                 : English
Default                                  : Yes
Forced                                   : No
Audio
ID                                       : 2
Format                                   : DTS
Format/Info                              : Digital Theater Systems
Format profile                           : MA / Core
Codec ID                                 : A_DTS
Duration                                 : 2 h 28 min
Bit rate mode                            : Variable / Constant
Bit rate                                 : 3 411 kb/s / 1 509 kb/s
Channel(s)                               : 6 channels
Channel positions                        : Front: L C R, Side: L R, LFE
Sampling rate                            : 48.0 kHz
Frame rate                               : 93.750 FPS (512 SPF)
Bit depth                                : 24 bits
Compression mode                         : Lossless / Lossy
Stream size                              : 3.55 GiB (27%)
Title                                    : Den.Of.Thieves.2018.UNRATED.1080p.BluRay.x264.DTS-HD.MA.5.1-FGT
Language                                 : English
Default                                  : Yes
Forced                                   : No
Text #1
ID                                       : 3
Format                                   : UTF-8
Codec ID                                 : S_TEXT/UTF8
Codec ID/Info                            : UTF-8 Plain Text
Duration                                 : 2 h 20 min
Bit rate                                 : 49 b/s
Count of elements                        : 1714
Stream size                              : 50.6 KiB (0%)
Title                                    : English-SRT
Language                                 : English
Default                                  : Yes
Forced                                   : No
Text #2
ID                                       : 4
Format                                   : PGS
Muxing mode                              : zlib
Codec ID                                 : S_HDMV/PGS
Codec ID/Info                            : Picture based subtitle format used on BDs/HD-DVDs
Duration                                 : 2 h 20 min
Bit rate                                 : 33.4 kb/s
Count of elements                        : 3428
Stream size                              : 33.5 MiB (0%)
Title                                    : English-PGS
Language                                 : English
Default                                  : No
Forced                                   : No
Menu
00:00:00.000                             : :00:00:00.000
00:09:38.870                             : :00:09:38.870
00:17:31.968                             : :00:17:31.968
00:24:03.734                             : :00:24:03.734
00:30:30.412                             : :00:30:30.412
00:43:48.084                             : :00:43:48.084
00:49:54.992                             : :00:49:54.992
00:58:58.285                             : :00:58:58.285
01:05:05.109                             : :01:05:05.109
01:10:42.780                             : :01:10:42.780
01:16:20.993                             : :01:16:20.993
01:25:11.481                             : :01:25:11.481
01:29:54.514                             : :01:29:54.514
01:35:50.870                             : :01:35:50.870
01:40:39.909                             : :01:40:39.909
01:50:22.532                             : :01:50:22.532
01:58:30.728                             : :01:58:30.728
02:04:59.909                             : :02:04:59.909
02:14:28.018                             : :02:14:28.018
02:22:15.318                             : :02:22:15.318


游客,如果您要查看本帖隐藏内容请回复
高清帝国为您每日更新最新高清电影下载,找3d电影下载资源就在高清帝国,请大家多多支持!
回复

使用道具 举报

发表于 2018-4-15 21:38:03 | 显示全部楼层
谢谢分享
!高清的好看
高清帝国为您每日更新最新高清电影下载,找3d电影下载资源就在高清帝国,请大家多多支持!
回复 支持 反对

使用道具 举报

发表于 4 天前 | 显示全部楼层
2018.UNRATED.1080p.BluRay.x264.DTS-HD.MA.5.1-FGT 12.9GB [[url=]修改[/url]]







高清帝国为您每日更新最新高清电影下载,找3d电影下载资源就在高清帝国,请大家多多支持!
回复 支持 反对

使用道具 举报

发表于 4 天前 | 显示全部楼层
下载欣赏,谢谢分享
高清帝国为您每日更新最新高清电影下载,找3d电影下载资源就在高清帝国,请大家多多支持!
回复 支持 反对

使用道具 举报

发表于 3 天前 | 显示全部楼层


下载欣赏,谢谢分享
高清帝国为您每日更新最新高清电影下载,找3d电影下载资源就在高清帝国,请大家多多支持!
回复 支持 反对

使用道具 举报

发表于 昨天 08:56 | 显示全部楼层
这个好,感谢分享!
高清帝国为您每日更新最新高清电影下载,找3d电影下载资源就在高清帝国,请大家多多支持!
回复 支持 反对

使用道具 举报

发表于 14 小时前 | 显示全部楼层
好片,来看一看
高清帝国为您每日更新最新高清电影下载,找3d电影下载资源就在高清帝国,请大家多多支持!
回复 支持 反对

使用道具 举报

您需要登录后才可以回帖 登录 | 立即注册

本版积分规则

网站地图|手机版|Archiver|3d电影下载

GMT+8, 2018-4-23 23:27 , Processed in 0.191092 second(s), 22 queries .

Powered by Discuz! X3.2

© 2001-2013 Comsenz Inc.

快速回复 返回顶部 返回列表