高清帝国论坛

 找回密码
 立即注册

QQ登录

只需一步,快速开始

搜索
查看: 83|回复: 0

[动作] 12生肖/生肖传说 Chinese.Zodiac.2012.1080p.BluRay.x264-aBD 8.73GB

[复制链接]
发表于 2018-4-15 17:40:42 | 显示全部楼层 |阅读模式
-->

◎译  名 12生肖/生肖传说/飞鹰计划3/成龙计划
◎片  名 十二生肖
◎年  代 2012
◎产  地 中国大陆/香港
◎类  别 喜剧/动作/冒险
◎语  言 英语/汉语普通话/粤语/法语/西班牙语
◎上映日期 2012-12-12(香港电影节)/2012-12-20(中国大陆)/2012-12-20(香港)
◎IMDb评分  6.1/10 from 18,203 users
◎IMDb链接  http://www.imdb.com/title/tt1424310/
◎豆瓣评分 6.6/10 from 193,372 users
◎豆瓣链接 https://movie.douban.com/subject/4212172/
◎BT之家整理 http://www.gaoqingdiguo.com
◎片  长 122分钟
◎导  演 成龙 Jackie Chan
◎主  演 成龙 Jackie Chan
      权相宇 Sang-woo Kwone
      廖凡 Fan Liao
      姚星彤 Xingtong Yao
      张蓝心 Lanxin Zhang
      白露娜 Laura Weissbecker
      刘承俊 Sung-jun Yoo
      吴彦祖 Daniel Wu
      舒淇 Qi Shu
      李宗盛 Jonathan Lee
      陈柏霖 Bo-lin Chen
      卢惠光 Ken Lo
      浅野长英
      白冰 Bing Bai
      林鹏 Peng Lin
◎简  介
  当年英法联军火烧圆明园,致使大批珍贵文物流落海外,其中四尊十二生肖兽首最引人关注,不仅惹出国内外的广泛争论,更有收藏家开出天价竞拍这几尊珍品。当然,其间不乏奸邪的文物贩子,试图通过偷盗的手段获取宝贝。以此为契机,正在度假的国际大盗JC(成龙 饰)隆重登场。JC背后有一支 Simon(权相宇 饰)、David(廖凡 饰)、Bonnie(张蓝心 饰)等人共同组成的超专业团队,他们一同远赴巴黎,寻求国宝鉴定专家Coco(姚星彤 饰)的帮助。经过周密细致的准备,JC等人一步步逼近重兵把守的兽首,而围绕珍宝不可避免爆发连番惊险火爆的打斗与追逐。
  在这一过程中,JC似曾被利益和金钱泯灭的爱国之心渐渐苏醒……
◎获奖情况
  第50届台北金马影展  (2013)
  金马奖 最佳动作设计 何钧 / 成龙
  第32届香港电影金像奖  (2013)
  最佳新演员(提名) 张蓝心
  最佳剪接(提名) 邱志伟
  最佳动作设计 何钧 / 成龙
  最佳视觉效果(提名) 黄宏达
  第32届大众电影百花奖  (2014)
  最佳男主角(提名) 成龙
  最佳女主角(提名) 姚星彤
  最佳新人(提名) 张蓝心
  第20届北京大学生电影节  (2013)
  最佳影片奖(提名)
Video
ID                                       : 1
Format                                   : AVC
Format/Info                              : Advanced Video Codec
Format profile                           : High@L4.1
Format settings                          : CABAC / 5 Ref Frames
Format settings, CABAC                   : Yes
Format settings, ReFrames                : 5 frames
Codec ID                                 : V_MPEG4/ISO/AVC
Duration                                 : 2 h 2 min
Bit rate                                 : 8 665 kb/s
Width                                    : 1 920 pixels
Height                                   : 816 pixels
Display aspect ratio                     : 2.35:1
Frame rate mode                          : Constant
Frame rate                               : 24.000 FPS
Color space                              : YUV
Chroma subsampling                       : 4:2:0
Bit depth                                : 8 bits
Scan type                                : Progressive
Bits/(Pixel*Frame)                       : 0.230
Stream size                              : 7.26 GiB (83%)
Writing library                          : x264 core 140 r2377 1ca7bb9
Encoding settings                        : cabac=1 / ref=5 / deblock=1:-1:-1 / analyse=0x3:0x113 / me=umh / subme=7 / psy=1 / psy_rd=1.00:0.00 / mixed_ref=1 / me_range=16 / chroma_me=1 / trellis=1 / 8x8dct=1 / cqm=0 / deadzone=21,11 / fast_pskip=1 / chroma_qp_offset=-2 / threads=12 / lookahead_threads=2 / sliced_threads=0 / nr=0 / decimate=1 / interlaced=0 / bluray_compat=0 / constrained_intra=0 / bframes=3 / b_pyramid=2 / b_adapt=2 / b_bias=0 / direct=3 / weightb=1 / open_gop=0 / weightp=2 / keyint=250 / keyint_min=24 / scenecut=40 / intra_refresh=0 / rc_lookahead=40 / rc=2pass / mbtree=1 / bitrate=8665 / ratetol=1.0 / qcomp=0.60 / qpmin=0 / qpmax=69 / qpstep=4 / cplxblur=20.0 / qblur=0.5 / vbv_maxrate=50000 / vbv_bufsize=50000 / nal_hrd=none / filler=0 / ip_ratio=1.40 / aq=1:1.00
Language                                 : Chinese
Default                                  : Yes
Forced                                   : No
Audio
ID                                       : 2
Format                                   : DTS
Format/Info                              : Digital Theater Systems
Codec ID                                 : A_DTS
Duration                                 : 2 h 2 min
Bit rate mode                            : Constant
Bit rate                                 : 1 509 kb/s
Channel(s)                               : 6 channels
Channel positions                        : Front: L C R, Side: L R, LFE
Sampling rate                            : 48.0 kHz
Frame rate                               : 93.750 FPS (512 SPF)
Bit depth                                : 24 bits
Compression mode                         : Lossy
Stream size                              : 1.30 GiB (15%)
Language                                 : Chinese
Default                                  : Yes
Forced                                   : No
Text
ID                                       : 3
Format                                   : UTF-8
Codec ID                                 : S_TEXT/UTF8
Codec ID/Info                            : UTF-8 Plain Text
Language                                 : English
Default                                  : Yes
Forced                                   : No


游客,如果您要查看本帖隐藏内容请回复
高清帝国为您每日更新最新高清电影下载,找3d电影下载资源就在高清帝国,请大家多多支持!
回复

使用道具 举报

您需要登录后才可以回帖 登录 | 立即注册

本版积分规则

网站地图|手机版|Archiver|3d电影下载

GMT+8, 2018-4-23 23:28 , Processed in 0.178692 second(s), 23 queries .

Powered by Discuz! X3.2

© 2001-2013 Comsenz Inc.

快速回复 返回顶部 返回列表