高清帝国论坛

 找回密码
 立即注册

QQ登录

只需一步,快速开始

搜索
查看: 125|回复: 0

[爱情] 纸月亮 Paper.Moon.2013.1080p.BluRay.X264-aBD 6.55GB

[复制链接]
发表于 2018-4-15 17:40:35 | 显示全部楼层 |阅读模式
-->

◎译  名 纸月亮/PaperMoon
◎片  名 纸月亮
◎年  代 2013
◎产  地 马来西亚 Malaysia
◎类  别 剧情/爱情
◎语  言 汉语普通话
◎上映日期 2013-01-17(马来西亚)
◎IMDb评分  4.9/10 from 36 users
◎IMDb链接  http://www.imdb.com/title/tt2925278/
◎豆瓣评分 5.6/10 from 590 users
◎豆瓣链接 https://movie.douban.com/subject/20380328/
◎BT之家整理 http://www.gaoqingdiguo.com
◎片  长 108分钟
◎导  演 罗德明 Stanley Law
◎主  演 林家栋 Ka Tung Lam
      周秀娜 Chrissie Chow
      杨雁雁 Yann Yann Yeo
      梁拯康 Kelvin Leong
      林宇中 Rynn Lim
      陈俊权 Gadrick Chen
      曾国珲 Tedd Chan
      张顺源 Shun Yuan Chong
◎简  介
  陈天送(林家栋 饰)出生在一个贫困的家庭之中,却偏偏爱上了千金大小姐高诗琴,两人的地位和身份悬殊是如此的巨大,注定了他们的感情不会受到祝福,亦不会有所结果。最终,两人分道扬镳,在陈天送的心中留下了深深的遗憾和阴影,他只能借着制作风筝来纪念这段逝去的爱情。
  某日,陈天送遇见了名为高曼华的美丽女子,让陈天送感到十分意外的是,高曼华竟然有着和高诗琴一模一样的样貌,这让陈天送无法自持的靠近她,但在内心中又充满了深深的抗拒和纠葛。高曼华来到吉兰丹,为的是寻找曾经伤害过母亲的男人,而她的母亲不是别人,正是高诗琴。
Video
ID                                       : 1
Format                                   : AVC
Format/Info                              : Advanced Video Codec
Format profile                           : High@L4.1
Format settings                          : CABAC / 4 Ref Frames
Format settings, CABAC                   : Yes
Format settings, ReFrames                : 4 frames
Codec ID                                 : V_MPEG4/ISO/AVC
Duration                                 : 1 h 47 min
Bit rate                                 : 8 096 kb/s
Width                                    : 1 920 pixels
Height                                   : 1 040 pixels
Display aspect ratio                     : 1.85:1
Frame rate mode                          : Constant
Frame rate                               : 24.000 FPS
Color space                              : YUV
Chroma subsampling                       : 4:2:0
Bit depth                                : 8 bits
Scan type                                : Progressive
Bits/(Pixel*Frame)                       : 0.169
Stream size                              : 5.94 GiB (91%)
Writing library                          : x264 core 133 r2334 a3ac64b
Encoding settings                        : cabac=1 / ref=4 / deblock=1:-1:-1 / analyse=0x3:0x113 / me=umh / subme=7 / psy=1 / psy_rd=1.00:0.00 / mixed_ref=1 / me_range=16 / chroma_me=1 / trellis=1 / 8x8dct=1 / cqm=0 / deadzone=21,11 / fast_pskip=1 / chroma_qp_offset=-2 / threads=12 / lookahead_threads=2 / sliced_threads=0 / nr=0 / decimate=1 / interlaced=0 / bluray_compat=0 / constrained_intra=0 / bframes=3 / b_pyramid=2 / b_adapt=2 / b_bias=0 / direct=3 / weightb=1 / open_gop=0 / weightp=2 / keyint=250 / keyint_min=24 / scenecut=40 / intra_refresh=0 / rc_lookahead=40 / rc=2pass / mbtree=1 / bitrate=8096 / ratetol=1.0 / qcomp=0.60 / qpmin=0 / qpmax=69 / qpstep=4 / cplxblur=20.0 / qblur=0.5 / vbv_maxrate=50000 / vbv_bufsize=50000 / nal_hrd=none / ip_ratio=1.40 / aq=1:1.00
Language                                 : Chinese
Default                                  : Yes
Forced                                   : No
Audio
ID                                       : 2
Format                                   : AC-3
Format/Info                              : Audio Coding 3
Codec ID                                 : A_AC3
Duration                                 : 1 h 47 min
Bit rate mode                            : Constant
Bit rate                                 : 640 kb/s
Channel(s)                               : 6 channels
Channel positions                        : Front: L C R, Side: L R, LFE
Sampling rate                            : 48.0 kHz
Frame rate                               : 31.250 FPS (1536 SPF)
Bit depth                                : 16 bits
Compression mode                         : Lossy
Stream size                              : 491 MiB (7%)
Language                                 : Chinese
Service kind                             : Complete Main
Default                                  : Yes
Forced                                   : No
Text
ID                                       : 3
Format                                   : UTF-8
Codec ID                                 : S_TEXT/UTF8
Codec ID/Info                            : UTF-8 Plain Text
Language                                 : English
Default                                  : Yes
Forced                                   : No


游客,如果您要查看本帖隐藏内容请回复
高清帝国为您每日更新最新高清电影下载,找3d电影下载资源就在高清帝国,请大家多多支持!
回复

使用道具 举报

您需要登录后才可以回帖 登录 | 立即注册

本版积分规则

网站地图|手机版|Archiver|3d电影下载

GMT+8, 2018-7-23 02:17 , Processed in 0.147844 second(s), 23 queries .

Powered by Discuz! X3.2

© 2001-2013 Comsenz Inc.

快速回复 返回顶部 返回列表