高清帝国论坛

 找回密码
 立即注册

QQ登录

只需一步,快速开始

搜索
查看: 84|回复: 0

[惊悚] 人间蒸发/瘟泉 The.Incredible.Truth.2013.1080p.BluRay.X264-aBD 6.55GB

[复制链接]
发表于 2018-4-15 17:40:34 | 显示全部楼层 |阅读模式
-->

◎译  名 瘟泉
◎片  名 人间蒸发
◎年  代 2013
◎产  地 中国大陆/香港
◎类  别 悬疑/惊悚
◎语  言 汉语普通话/粤语/日语
◎上映日期 2013-04-28(中国大陆)
◎IMDb评分  3.8/10 from 95 users
◎IMDb链接  http://www.imdb.com/title/tt2334350/
◎豆瓣评分 2.8/10 from 2,501 users
◎豆瓣链接 https://movie.douban.com/subject/20280082/
◎BT之家整理 http://www.gaoqingdiguo.com
◎片  长 90分钟
◎导  演 梁德森 Tak-Sam Leong
◎主  演 柳岩 Yan Liu
      李灿森 Sam Lee
      钟丽缇 Christy Chung
      何华超 Tony Ho
      国村隼 Jun Kunimura
      阿部真里 Mari Abe
      点点 Denden
      神乐坂惠 Megumi Kagurazaka
◎简  介
  2011年,日本发生了9级强烈地震,福岛发生核泄漏,核辐射笼罩日本。
  加嘉(柳岩 饰)冒险跟未婚夫赴日见其家人。刚到富士山下赤石温泉,就被当地村民囚禁,过着禁室培欲的非人生活,懦弱的宏泰只知道借酒浇愁。加嘉的好姐妹卫凌(钟丽缇 饰)毅然赴日寻找加嘉。在探员木下(李灿森 饰)的帮助下,调查逐渐深入,但周围的环境也越来越险恶。宏泰被人勒死在温泉池中,美智子因极度恐惧陷入疯狂,节子遇袭虽神智清醒却无法表达,忠男经常通过门缝偷窥卫凌,核辐射阴影下的居民逐渐失去人性,像鬣狗一样时刻准备咬碎卫凌这个外人……
  周围的人逐一死亡,恐怖事件逐渐升级。这一切背后还隐藏着更大的秘密……
Video
ID                                       : 1
Format                                   : AVC
Format/Info                              : Advanced Video Codec
Format profile                           : High@L4.1
Format settings                          : CABAC / 5 Ref Frames
Format settings, CABAC                   : Yes
Format settings, ReFrames                : 5 frames
Codec ID                                 : V_MPEG4/ISO/AVC
Duration                                 : 1 h 30 min
Bit rate                                 : 8 860 kb/s
Width                                    : 1 920 pixels
Height                                   : 808 pixels
Display aspect ratio                     : 2.40:1
Frame rate mode                          : Constant
Frame rate                               : 24.000 FPS
Color space                              : YUV
Chroma subsampling                       : 4:2:0
Bit depth                                : 8 bits
Scan type                                : Progressive
Bits/(Pixel*Frame)                       : 0.238
Stream size                              : 5.47 GiB (83%)
Writing library                          : x264 core 133 r2334 a3ac64b
Encoding settings                        : cabac=1 / ref=5 / deblock=1:-1:-1 / analyse=0x3:0x113 / me=umh / subme=7 / psy=1 / psy_rd=1.00:0.00 / mixed_ref=1 / me_range=16 / chroma_me=1 / trellis=1 / 8x8dct=1 / cqm=0 / deadzone=21,11 / fast_pskip=1 / chroma_qp_offset=-2 / threads=12 / lookahead_threads=2 / sliced_threads=0 / nr=0 / decimate=1 / interlaced=0 / bluray_compat=0 / constrained_intra=0 / bframes=3 / b_pyramid=2 / b_adapt=2 / b_bias=0 / direct=3 / weightb=1 / open_gop=0 / weightp=2 / keyint=250 / keyint_min=24 / scenecut=40 / intra_refresh=0 / rc_lookahead=40 / rc=2pass / mbtree=1 / bitrate=8860 / ratetol=1.0 / qcomp=0.60 / qpmin=0 / qpmax=69 / qpstep=4 / cplxblur=20.0 / qblur=0.5 / vbv_maxrate=50000 / vbv_bufsize=50000 / nal_hrd=none / ip_ratio=1.40 / aq=1:1.00
Language                                 : Chinese
Default                                  : Yes
Forced                                   : No
Audio
ID                                       : 2
Format                                   : DTS
Format/Info                              : Digital Theater Systems
Format profile                           : ES Matrix / Core
Codec ID                                 : A_DTS
Duration                                 : 1 h 30 min
Bit rate mode                            : Constant
Bit rate                                 : 1 509 kb/s
Channel(s)                               : 7 channels / 6 channels
Channel positions                        : Front: L C R, Side: L R, Back: C, LFE / Front: L C R, Side: L R, LFE
Sampling rate                            : 48.0 kHz
Frame rate                               : 93.750 FPS (512 SPF)
Bit depth                                : 16 bits
Compression mode                         : Lossy
Stream size                              : 976 MiB (15%)
Language                                 : Chinese
Default                                  : Yes
Forced                                   : No
Text
ID                                       : 3
Format                                   : UTF-8
Codec ID                                 : S_TEXT/UTF8
Codec ID/Info                            : UTF-8 Plain Text
Language                                 : English
Default                                  : Yes
Forced                                   : No


游客,如果您要查看本帖隐藏内容请回复
高清帝国为您每日更新最新高清电影下载,找3d电影下载资源就在高清帝国,请大家多多支持!
回复

使用道具 举报

您需要登录后才可以回帖 登录 | 立即注册

本版积分规则

网站地图|手机版|Archiver|3d电影下载

GMT+8, 2018-4-23 23:28 , Processed in 0.161949 second(s), 21 queries .

Powered by Discuz! X3.2

© 2001-2013 Comsenz Inc.

快速回复 返回顶部 返回列表