高清帝国论坛

 找回密码
 立即注册

QQ登录

只需一步,快速开始

搜索
查看: 212|回复: 5

[动作] 空天猎 Sky.Hunter.2017.720p.BluRay.x264-WiKi 4.37GB

[复制链接]
发表于 2018-4-8 20:10:46 | 显示全部楼层 |阅读模式
-->

◎译  名 霸天狼
◎片  名 空天猎
◎年  代 2017
◎产  地 中国大陆
◎类  别 剧情/动作/战争
◎语  言 汉语普通话
◎上映日期 2017-09-29(中国大陆)
◎IMDb评分  5.4/10 from 240 users
◎IMDb链接  http://www.imdb.com/title/tt6908536/
◎豆瓣评分 5.1/10 from 43,783 users
◎豆瓣链接 https://movie.douban.com/subject/26753020/
◎BT之家整理 http://www.gaoqingdiguo.com
◎片  长 115分钟
◎导  演 李晨 Chen Li
◎主  演 李晨 Chen Li
      范冰冰 Bingbing Fan
      王千源 Qianyuan Wang
      李佳航 Jiahang Li
      赵达 Da Zhao
      李晨浩 Leon Lee
      郭洺宇 Mingyu Guo
      叶浏 Liu Ye
      陆思宇 Siyu Lu
      托马尔·奥兹 Tomer Oz
      吴秀波 Xiubo Wu
      邓超 Chao Deng
      王学圻 Xueqi Wang
◎简  介
  一场空天战场的猎杀传奇。霸天狼,一支神秘的空军顶级团队,每一名飞行员都是“金头盔” 级别的王牌飞行员,吴迪(李晨 饰)、亚莉(范冰冰 饰)、巴图(郭洺宇 饰)、高原(李晨浩 饰)通过层层考核,成为了霸天狼秘密基地的一员。可谁也没有想到,吴迪的好友浩辰(李佳航 饰)却在任务中陷入一场境外战乱的阴谋。更大的威胁接踵而至,恐怖势力突 发其来的导弹危机和人质危机,空前地挑战着中国空军的实战能力!十万火急之下,最新式 的中国战机和最顶级的飞行员,与掌握导弹密码和先进战机的敌人,在境外天空展开一场生死对决......
Video
ID                                       : 1
Format                                   : AVC
Format/Info                              : Advanced Video Codec
Format profile                           : High@L4.1
Format settings                          : CABAC / 12 Ref Frames
Format settings, CABAC                   : Yes
Format settings, ReFrames                : 12 frames
Codec ID                                 : V_MPEG4/ISO/AVC
Duration                                 : 1 h 55 min
Bit rate                                 : 4 796 kb/s
Width                                    : 1 280 pixels
Height                                   : 538 pixels
Display aspect ratio                     : 2.40:1
Frame rate mode                          : Constant
Frame rate                               : 24.000 FPS
Color space                              : YUV
Chroma subsampling                       : 4:2:0
Bit depth                                : 8 bits
Scan type                                : Progressive
Bits/(Pixel*Frame)                       : 0.290
Stream size                              : 3.86 GiB (88%)
Writing library                          : x264 core 129 r2245+704+36 8e61944 tMod+MixAQ [8-bit@4:2:0 X86_64]
Encoding settings                        : cabac=1 / ref=12 / deblock=1:-3:-3 / analyse=0x3:0x133 / me=umh / subme=11 / psy=1 / fade_compensate=0.00 / psy_rd=1.05:0.10 / mixed_ref=1 / me_range=32 / chroma_me=1 / trellis=2 / 8x8dct=1 / cqm=0 / deadzone=21,11 / fast_pskip=0 / chroma_qp_offset=-3 / threads=18 / lookahead_threads=3 / sliced_threads=0 / nr=0 / decimate=0 / interlaced=0 / bluray_compat=0 / constrained_intra=0 / fgo=0 / bframes=10 / b_pyramid=2 / b_adapt=2 / b_bias=0 / direct=3 / weightb=1 / open_gop=0 / weightp=2 / keyint=250 / keyint_min=24 / scenecut=40 / intra_refresh=0 / rc=2pass / mbtree=0 / bitrate=4796 / ratetol=1.0 / qcomp=0.70 / qpmin=0 / qpmax=69 / qpstep=4 / cplxblur=20.0 / qblur=0.5 / ip_ratio=1.40 / pb_ratio=1.30 / aq=1 / aq-strength=0.85 / aq-sensitivity=10.00 / aq-ifactor=1.00 / aq-pfactor=1.00 / aq-bfactor=1.00 / aq2=0
Language                                 : Chinese
Default                                  : Yes
Forced                                   : No
Audio
ID                                       : 2
Format                                   : AC-3
Format/Info                              : Audio Coding 3
Codec ID                                 : A_AC3
Duration                                 : 1 h 55 min
Bit rate mode                            : Constant
Bit rate                                 : 640 kb/s
Channel(s)                               : 6 channels
Channel positions                        : Front: L C R, Side: L R, LFE
Sampling rate                            : 48.0 kHz
Frame rate                               : 31.250 FPS (1536 SPF)
Bit depth                                : 16 bits
Compression mode                         : Lossy
Stream size                              : 527 MiB (12%)
Language                                 : Chinese
Service kind                             : Complete Main
Default                                  : Yes
Forced                                   : No
Text #1
ID                                       : 3
Format                                   : UTF-8
Codec ID                                 : S_TEXT/UTF8
Codec ID/Info                            : UTF-8 Plain Text
Duration                                 : 1 h 43 min
Bit rate                                 : 35 b/s
Count of elements                        : 1263
Stream size                              : 27.2 KiB (0%)
Title                                    : Simplified
Language                                 : Chinese
Default                                  : Yes
Forced                                   : No
Text #2
ID                                       : 4
Format                                   : UTF-8
Codec ID                                 : S_TEXT/UTF8
Codec ID/Info                            : UTF-8 Plain Text
Duration                                 : 1 h 43 min
Bit rate                                 : 35 b/s
Count of elements                        : 1263
Stream size                              : 27.2 KiB (0%)
Title                                    : Traditional
Language                                 : Chinese
Default                                  : No
Forced                                   : No
Menu
00:00:00.000                             : en:00:00:00.000
00:06:12.750                             : en:00:06:12.750
00:11:53.458                             : en:00:11:53.458
00:16:20.458                             : en:00:16:20.458
00:21:21.833                             : en:00:21:21.833
00:26:30.875                             : en:00:26:30.875
00:33:06.625                             : en:00:33:06.625
00:37:34.000                             : en:00:37:34.000
00:43:19.125                             : en:00:43:19.125
00:50:11.208                             : en:00:50:11.208
00:57:22.625                             : en:00:57:22.625
01:01:42.125                             : en:01:01:42.125
01:06:19.250                             : en:01:06:19.250
01:11:45.750                             : en:01:11:45.750
01:17:08.083                             : en:01:17:08.083
01:22:43.375                             : en:01:22:43.375
01:26:37.166                             : en:01:26:37.166
01:34:41.500                             : en:01:34:41.500
01:40:40.500                             : en:01:40:40.500
01:46:36.000                             : en:01:46:36.000


游客,如果您要查看本帖隐藏内容请回复
高清帝国为您每日更新最新高清电影下载,找3d电影下载资源就在高清帝国,请大家多多支持!
回复

使用道具 举报

发表于 2018-4-9 13:04:05 | 显示全部楼层
谢谢楼主分享!!
高清帝国为您每日更新最新高清电影下载,找3d电影下载资源就在高清帝国,请大家多多支持!
回复 支持 反对

使用道具 举报

发表于 2018-12-21 19:14:29 | 显示全部楼层


http://uzpa.vip/
做任务免费得VIP
高清帝国为您每日更新最新高清电影下载,找3d电影下载资源就在高清帝国,请大家多多支持!
回复 支持 反对

使用道具 举报

发表于 7 天前 | 显示全部楼层
GXFX感謝分享
高清帝国为您每日更新最新高清电影下载,找3d电影下载资源就在高清帝国,请大家多多支持!
回复 支持 反对

使用道具 举报

发表于 7 天前 | 显示全部楼层

谢谢楼主分享
高清帝国为您每日更新最新高清电影下载,找3d电影下载资源就在高清帝国,请大家多多支持!
回复 支持 反对

使用道具 举报

您需要登录后才可以回帖 登录 | 立即注册

本版积分规则

网站地图|Archiver|手机版|3d电影下载

GMT+8, 2019-2-17 04:37 , Processed in 0.157522 second(s), 22 queries .

Powered by Discuz! X3.2

© 2001-2013 Comsenz Inc.

快速回复 返回顶部 返回列表